Children.Of.The.Corn.Genesis.2011.DvDRip.XviD.Ac3.Feel-Free

Download Download Torrent
Added September 5 2011
Categorymovies
Seeds / Peers2 / 81 Refresh Leechers
Size933.3 MB
Hash485e89e0a0bff43ee9829a8c555d3a8df4ce75e7
Files
932.77 MB Children.Of.The.Corn.Genesis.2011.DvDRip.XviD.Ac3.Feel-Free.avi
Trackers
http://tracker.thepiratebay.org/announce
udp://tracker.openbittorrent.com:80
udp://tracker.ccc.de:80
udp://tracker.istole.it:80
udp://tracker.publicbt.com:80
http://pow7.com/announce
http://10.rarbg.com/announce
http://tracker.novalayer.org:6969/announce
http://9.rarbg.com:2710/announce
Description
Genre:Horror | Thriller
Language:English

http://www.imdb.com/title/tt1745672/

Source:DVD Thanks!

Format : AVI
Format/Info : Audio Video Interleave
File size : 933 MiB
Duration : 1h 20mn
Overall bit rate : 1 618 Kbps

Video
ID : 0
Format : MPEG-4 Visual
Format profile : Advanced Simple@L5
Format settings, BVOP : Yes
Format settings, QPel : No
Format settings, GMC : No warppoints
Format settings, Matrix : Default (H.263)
Codec ID : XVID
Codec ID/Hint : XviD
Duration : 1h 20mn
Bit rate : 1 161 Kbps
Width : 640 pixels
Height : 272 pixels
Display aspect ratio : 2.35:1
Frame rate : 23.976 fps
Color space : YUV
Chroma subsampling : 4:2:0
Bit depth : 8 bits
Scan type : Progressive
Bits/(Pixel*Frame) : 0.278
Stream size : 669 MiB (72%)
Writing library : XviD 1.2.1 (UTC 2008-12-04)

Audio
ID : 1
Format : AC-3
Format/Info : Audio Coding 3
Mode extension : CM (complete main)
Codec ID : 2000
Duration : 1h 20mn
Bit rate mode : Constant
Bit rate : 448 Kbps
Channel(s) : 6 channels
Channel positions : Front: L C R, Side: L R, LFE
Sampling rate : 48.0 KHz
Bit depth : 16 bits
Stream size : 258 MiB (28%)
Alignment : Aligned on interleaves
Interleave, duration : 42 ms (1.00 video frame)
Interleave, preload duration : 512 ms


Plot:
A young couple tries to free an imprisoned child with catastrophic results

Locations no locations

Related

FILE SIZE SEEDS PEERS ADDED
Les Paul - The Complete Decca Trios - Plus (1936-1947) [2CD] (1997) [EAC-FLAC] - music 807.3 MB 1 2 20 hours
A.R.Rahman's Holi - Festival of Colors - MP3 - 320KBPS [josonjohn] - music 13.86 MB 1 0 20 hours
Armin van Buuren - A State of Trance 455 (2010-05-06) 320kbps Split - music Verified 274.15 MB 0 0 20 hours
[Blues Rock] My Blue Van - Hush 2015 (Jamal The Moroccan) - music Verified 132.82 MB 1 0 20 hours
[Country Blues] Loes Swinkels - Nothing As I Know 2015 (Jamal The Moroccan) - music Verified 124.91 MB 1 0 20 hours
Empire S01E08 - The Lyon's Roar - HDTV {KNIX} - series Verified 1.26 GB 1 0 21 hours
Fresh Off the Boat S01E06 Fajita Man (1920x1080) [Phr0stY].mkv - series Verified 860.3 MB 1 0 21 hours
Fresh Off the Boat S01E07 Showdown at the Golden Corral (1920x1080) [Phr0stY].mkv - series Verified 842.3 MB 1 0 21 hours
The Talos Principle Repack By [SD TEAM] - games Verified 6.11 GB 5 15 21 hours
Preachers Of Detroit S01E03 One Step Forward Two Back WS DSR x264-[NY2] mp4 - series Verified 347.15 MB 1 0 21 hours
Mar Mitenge 2 2015 DvDscr XviD AAC Hindi Movie - movies 571.65 MB 1 0 21 hours
A.R.Rahman's Holi - Festival of Colors - HD - 1080p - MP4 [josonjohn] - movies 140.32 MB 1 0 21 hours
Ab Tak Chhappan 2 2015 DvDscr XviD AAC Hindi Movie - movies 370.32 MB 1 0 21 hours
Marido Disfarcado 2015 BDRip XviD Dublado - movies Verified 709.82 MB 1 1 21 hours
Jesse Fuller Move On Down The Line(blues)(mp3@320)[rogercc] - music Verified 95.91 MB 13 4 21 hours
Dont Go in the House 1979 480p BluRay x264 mSD - movies Verified 577.07 MB 0 0 21 hours
I 2015 DvDrip XviD AAC Hindi Movie - movies 1.15 GB 1 0 21 hours
Badlapur 2015 DvDscr XviD AAC Hindi Movie - movies 368.07 MB 1 0 21 hours
Witness for the Prosecution 1957 720p BRRip x264 AAC-[LOTR] - movies 924.3 MB 1 0 22 hours
Roy 2015 DvDscr XviD AAC Hindi Movie - movies 314.32 MB 1 0 22 hours
battlefield editor samsung galaxy s3 drunk liverpool psp iso cake calvin harris imsi turbocad professional platinum spiral bbc series 3 thomas hardin trio the cool surface songs call of duty 2 love rosie songs for reggae lovers gianni celeste dvd rip 2015 saint seiya windows 8 1