Children.Of.The.Corn.Genesis.2011.DvDRip.XviD.Ac3.Feel-Free

Download Download Torrent
Added September 5 2011
Categorymovies
Seeds / Peers2 / 81 Refresh Leechers
Size933.3 MB
Hash485e89e0a0bff43ee9829a8c555d3a8df4ce75e7
Files
932.77 MB Children.Of.The.Corn.Genesis.2011.DvDRip.XviD.Ac3.Feel-Free.avi
Trackers
http://tracker.thepiratebay.org/announce
udp://tracker.openbittorrent.com:80
udp://tracker.ccc.de:80
udp://tracker.istole.it:80
udp://tracker.publicbt.com:80
http://pow7.com/announce
http://10.rarbg.com/announce
http://tracker.novalayer.org:6969/announce
http://9.rarbg.com:2710/announce
Description
Genre:Horror | Thriller
Language:English

http://www.imdb.com/title/tt1745672/

Source:DVD Thanks!

Format : AVI
Format/Info : Audio Video Interleave
File size : 933 MiB
Duration : 1h 20mn
Overall bit rate : 1 618 Kbps

Video
ID : 0
Format : MPEG-4 Visual
Format profile : Advanced Simple@L5
Format settings, BVOP : Yes
Format settings, QPel : No
Format settings, GMC : No warppoints
Format settings, Matrix : Default (H.263)
Codec ID : XVID
Codec ID/Hint : XviD
Duration : 1h 20mn
Bit rate : 1 161 Kbps
Width : 640 pixels
Height : 272 pixels
Display aspect ratio : 2.35:1
Frame rate : 23.976 fps
Color space : YUV
Chroma subsampling : 4:2:0
Bit depth : 8 bits
Scan type : Progressive
Bits/(Pixel*Frame) : 0.278
Stream size : 669 MiB (72%)
Writing library : XviD 1.2.1 (UTC 2008-12-04)

Audio
ID : 1
Format : AC-3
Format/Info : Audio Coding 3
Mode extension : CM (complete main)
Codec ID : 2000
Duration : 1h 20mn
Bit rate mode : Constant
Bit rate : 448 Kbps
Channel(s) : 6 channels
Channel positions : Front: L C R, Side: L R, LFE
Sampling rate : 48.0 KHz
Bit depth : 16 bits
Stream size : 258 MiB (28%)
Alignment : Aligned on interleaves
Interleave, duration : 42 ms (1.00 video frame)
Interleave, preload duration : 512 ms


Plot:
A young couple tries to free an imprisoned child with catastrophic results

Locations no locations

Related

FILE SIZE SEEDS PEERS ADDED
At the Earths Core (1976) 1080p BrRip x264 - YIFY - movies Verified 1.24 GB 236 261 21 hours
[AnimeRG] Seraph of the End - S1 (Dual Audio) 720p (Hi10p) Vampire Reign (Owari no Seraph) Complete Season 1 (01-12) [KoTuWa] - anime Verified 2.37 GB 2 17 21 hours
[AnimeRG] Seraph of the End Vampire Reign 01-12 (Dual) 1080p [Phr0stY] - anime Verified 8.53 GB 2 0 21 hours
Dharam Sankat Mein (2015) Hindi - 720p DVDRiP - 999MB - ShAaNiG - movies Verified 1000.3 MB 11 65 21 hours
Trainwreck.2015.HC.HDRip.XViD-ETRG - movies Verified 1.39 GB 5310 10989 21 hours
Far from the Madding Crowd (2015)(dvd5)(Nl subs) BR2DVD SAM TBS - movies Verified 2.78 GB 28 27 21 hours
Chef - La Ricetta Perfetta (2014), [XviD - Ita Ac3 5.1] Commedia - movies Verified 1.36 GB 3 15 21 hours
Song of the Sea (2014) 1080p (Nl sub) BluRay SAM TBS - movies Verified 5.22 GB 3 34 21 hours
Star Wars The Original Trilogy (Theatrical Cut) 720p EN-MULTI-SUB x264-[MULVAcoded] - movies Verified 2.63 GB 31 68 21 hours
[ZippyMovieZ.CC] Nee-Na (2015) Malayalam DVDRip 1CD 700MB AAC 5.1 Esub ZippyMovieZ ExCluSIvE - movies Verified 706.3 MB 1 0 21 hours
Deep Down Dark - The Untold Stories of 33 Men Buried in a Chilean Mine, and the Miracle That Set Them Free - H├ęctor Tobar - misc Verified 368.57 MB 8 11 21 hours
T.S. Eliot - The Voice of the Poet - misc Verified 43.91 MB 15 6 21 hours
The Talos Principle: Road to Gehenna (v244371, 3 DLC, MULTI13) [FitGirl Repack] - games Verified 5.05 GB 3 26 21 hours
Machina of the Planet Tree Planet Ruler-SKIDROW - games Verified 762.65 MB 29 28 22 hours
Tomb Raider 2 - The Dagger of Xian (1997) - games 185.33 MB 1 0 22 hours
Serpent in the Staglands (2.8.0.9) (GOG) - games Verified 313.82 MB 16 15 22 hours
Tomb Raider 3 - Adventures of Lara Croft (1998) - games 302.66 MB 1 0 22 hours
Tomb Raider - The Last Revelation (1999) - games 546.32 MB 1 0 22 hours
CumLouder - Fuck to the fame - misc 256.32 MB 1 7 22 hours
Secrets of the Harem - misc Verified 702.07 MB 13 23 22 hours
very young girl privatecasting mond-036 the hunger games mockingjay part 1 xxx video now rock shippuden animerg ps2 spanish rock roxio easy cd dvd burning orgasm sundolls sperma-studio josiah reynolds mysteries exploited dakota james blacked martial art mr robot ita pc big bottom sadie