Children.Of.The.Corn.Genesis.2011.DvDRip.XviD.Ac3.Feel-Free

Download Download Torrent
Added September 5 2011
Categorymovies
Seeds / Peers2 / 81 Refresh Leechers
Size933.3 MB
Hash485e89e0a0bff43ee9829a8c555d3a8df4ce75e7
Files
932.77 MB Children.Of.The.Corn.Genesis.2011.DvDRip.XviD.Ac3.Feel-Free.avi
Trackers
http://tracker.thepiratebay.org/announce
udp://tracker.openbittorrent.com:80
udp://tracker.ccc.de:80
udp://tracker.istole.it:80
udp://tracker.publicbt.com:80
http://pow7.com/announce
http://10.rarbg.com/announce
http://tracker.novalayer.org:6969/announce
http://9.rarbg.com:2710/announce
Description
Genre:Horror | Thriller
Language:English

http://www.imdb.com/title/tt1745672/

Source:DVD Thanks!

Format : AVI
Format/Info : Audio Video Interleave
File size : 933 MiB
Duration : 1h 20mn
Overall bit rate : 1 618 Kbps

Video
ID : 0
Format : MPEG-4 Visual
Format profile : Advanced Simple@L5
Format settings, BVOP : Yes
Format settings, QPel : No
Format settings, GMC : No warppoints
Format settings, Matrix : Default (H.263)
Codec ID : XVID
Codec ID/Hint : XviD
Duration : 1h 20mn
Bit rate : 1 161 Kbps
Width : 640 pixels
Height : 272 pixels
Display aspect ratio : 2.35:1
Frame rate : 23.976 fps
Color space : YUV
Chroma subsampling : 4:2:0
Bit depth : 8 bits
Scan type : Progressive
Bits/(Pixel*Frame) : 0.278
Stream size : 669 MiB (72%)
Writing library : XviD 1.2.1 (UTC 2008-12-04)

Audio
ID : 1
Format : AC-3
Format/Info : Audio Coding 3
Mode extension : CM (complete main)
Codec ID : 2000
Duration : 1h 20mn
Bit rate mode : Constant
Bit rate : 448 Kbps
Channel(s) : 6 channels
Channel positions : Front: L C R, Side: L R, LFE
Sampling rate : 48.0 KHz
Bit depth : 16 bits
Stream size : 258 MiB (28%)
Alignment : Aligned on interleaves
Interleave, duration : 42 ms (1.00 video frame)
Interleave, preload duration : 512 ms


Plot:
A young couple tries to free an imprisoned child with catastrophic results

Locations no locations

Related

FILE SIZE SEEDS PEERS ADDED
The Gambler 2014 BDRip x264-SPARKS - misc Verified 513.82 MB 0 0 14 hours
Battle Heater: Kotatsu [Japan] [1990/DVDRIP/x264] - anime 1.57 GB 18 19 14 hours
Modern Talking 30 The New Best Of Album! 2CD [2014] 320 - music Verified 384.15 MB 181 20 14 hours
The Clash Hits Back [2CD] 320 - music Verified 270.15 MB 18 4 14 hours
Various Artists - Fifty Shades of Grey (Original Motion Picture Soundtrack) (2015) [MP3 320kbps] - music 144.32 MB 7 0 14 hours
Danny Elfman - Fifty Shades Of Grey (Original Motion Picture Score) (2015) [MP3 - VBR ~240kbps] - music 76.04 MB 4 1 14 hours
Various Artists - Fifty Shades of Grey (Original Motion Picture Soundtrack) (2015) [M4A 256kbps] - music 121.41 MB 3 0 14 hours
Various Artists - Fifty Shades of Grey (Original Motion Picture Soundtrack) (2015) [AAC 256kbps] - music 116.04 MB 1 0 15 hours
Various Artists - Into the Woods (Original Motion Picture Soundtrack) [Deluxe Edition] (2014) [MP3 320kbps] - music 226.57 MB 5 1 15 hours
Marc Almond The Velvet Trail [2015] 320 - music Verified 126.66 MB 32 6 15 hours
Marina and The Diamonds FROOT [iTunes AAC] 2015 - music Verified 106.41 MB 32 2 15 hours
The Prodigy Their Law The Singles 1990 - 2005 ALAC - music Verified 1.08 GB 5 2 15 hours
The Journey (Northwest Passage Book 2) epub [HTD] - misc Verified 332.8 KB 12 3 15 hours
The Prodigy Very Best 2000 [2CD] FLAC - music Verified 849.3 MB 11 1 15 hours
SSL and TLS Essentials - Securing the Web.pdf Gooner - misc Verified 1.39 MB 23 5 15 hours
The Lotus Crew epub [HTD] - misc Verified 524.8 KB 1 0 15 hours
The Howard Stern Show 3-30-15 & The Wrap Up Show 3-30-15 - music Verified 183.32 MB 66 42 15 hours
The Man Who Wouldn't Marry epub [HTD] - misc Verified 2.14 MB 1 0 15 hours
The Mine (Northwest Passage Book 1)(epub, mobi) [HTD] - misc Verified 1.14 MB 13 3 15 hours
James Bay Chaos And The Calm [DE 2015] 320 WEB - music Verified 170.07 MB 248 37 15 hours
ana foxx corel my wifes hot friend poser pervcity walk away and i stumble ghost sullivan the enid naughty america eldorado dvd fab the sorcerers apprentice tonights girlfriend tonight girlfriend pussy airmail martyrs monsters inc wall-e soundtrack