Children.Of.The.Corn.Genesis.2011.DvDRip.XviD.Ac3.Feel-Free

Download Download Torrent
Added September 5 2011
Categorymovies
Seeds / Peers2 / 81 Refresh Leechers
Size933.3 MB
Hash485e89e0a0bff43ee9829a8c555d3a8df4ce75e7
Files
932.77 MB Children.Of.The.Corn.Genesis.2011.DvDRip.XviD.Ac3.Feel-Free.avi
Trackers
http://tracker.thepiratebay.org/announce
udp://tracker.openbittorrent.com:80
udp://tracker.ccc.de:80
udp://tracker.istole.it:80
udp://tracker.publicbt.com:80
http://pow7.com/announce
http://10.rarbg.com/announce
http://tracker.novalayer.org:6969/announce
http://9.rarbg.com:2710/announce
Description
Genre:Horror | Thriller
Language:English

http://www.imdb.com/title/tt1745672/

Source:DVD Thanks!

Format : AVI
Format/Info : Audio Video Interleave
File size : 933 MiB
Duration : 1h 20mn
Overall bit rate : 1 618 Kbps

Video
ID : 0
Format : MPEG-4 Visual
Format profile : Advanced Simple@L5
Format settings, BVOP : Yes
Format settings, QPel : No
Format settings, GMC : No warppoints
Format settings, Matrix : Default (H.263)
Codec ID : XVID
Codec ID/Hint : XviD
Duration : 1h 20mn
Bit rate : 1 161 Kbps
Width : 640 pixels
Height : 272 pixels
Display aspect ratio : 2.35:1
Frame rate : 23.976 fps
Color space : YUV
Chroma subsampling : 4:2:0
Bit depth : 8 bits
Scan type : Progressive
Bits/(Pixel*Frame) : 0.278
Stream size : 669 MiB (72%)
Writing library : XviD 1.2.1 (UTC 2008-12-04)

Audio
ID : 1
Format : AC-3
Format/Info : Audio Coding 3
Mode extension : CM (complete main)
Codec ID : 2000
Duration : 1h 20mn
Bit rate mode : Constant
Bit rate : 448 Kbps
Channel(s) : 6 channels
Channel positions : Front: L C R, Side: L R, LFE
Sampling rate : 48.0 KHz
Bit depth : 16 bits
Stream size : 258 MiB (28%)
Alignment : Aligned on interleaves
Interleave, duration : 42 ms (1.00 video frame)
Interleave, preload duration : 512 ms


Plot:
A young couple tries to free an imprisoned child with catastrophic results

Locations no locations

Related

FILE SIZE SEEDS PEERS ADDED
Narcos S01E08 720p WEBRip DailyFliX XviD avi - series 863.15 MB 0 0 22 hours
The Voice AU S04E18.The.Grand.Finale.720p.WebRip.x264-Poke.mp4 [imass] - series Verified 1.93 GB 35 111 22 hours
8 Out Of 10 Cats Does Countdown S07E16 HDTV x264-TLA - series Verified 332.57 MB 37 15 22 hours
The Harvest (2013) 720p BluRay - 800MB - ShAaNiG - movies Verified 801.3 MB 0 0 22 hours
The Godfather (1972) 1080p BluRay HEVC x265-n0m1 - movies Verified 2.74 GB 0 0 22 hours
The.X.Factor.UK.S12E02.PDTV.x264-JIVE.mp4 [imass] - series Verified 341.15 MB 324 126 22 hours
Como sobrevivir a una despedida SPANiSH ESPAñOL HDRip XviD-ELiTETORRENT - movies 1.61 GB 0 0 22 hours
La familia Belier SPANiSH ESPAñOL HDRip XviD-ELiTETORRENT - movies 1.75 GB 0 0 22 hours
El ultimo cazador SPANiSH ESPAñOL HDRip XviD-ELiTETORRENT - movies 1.8 GB 0 0 22 hours
Reading Festival 2015 Panic At The Disco XviD MP3 - series Verified 351.65 MB 4 4 22 hours
Regular Show S07E05 The Dome Experiment 480p x264-mSD - series Verified 89.63 MB 3 4 22 hours
The Prestige 2006 1080p BDRip AC3Max SAL - movies 3.42 GB 0 0 22 hours
The Haunting Of S04E28 Margaret Cho 480p x264-mSD - series Verified 190.02 MB 0 0 22 hours
Turbo Kid 2015 HDRip x264 AC3-iFT - movies Verified 1.37 GB 6 34 22 hours
Tale of Tales 2015 720p BluRay 2CH x265 HEVC-PSA - movies 1010.6 MB 0 0 22 hours
Mad Max SPANiSH ESPAñOL HDRip XviD-ELiTETORRENT - movies 1.93 GB 0 0 22 hours
7 Minutes 2014 DVDRip XviD AC3-iFT - movies Verified 1.2 GB 1 2 22 hours
Cruel Will.2013.DVDRip.x264-VoMiT - movies Verified 719.57 MB 1 6 22 hours
The Curse of Downers Grove 2015 BDRip x264 RoSubbed-playSD - movies Verified 460.82 MB 1 2 22 hours
Nanban (2012) - HD - 720p - x264 - AC3 5.1 - Team SR.mkv - movies 3.72 GB 0 0 22 hours
pc gamer pushing daisies s01e07 ministry of sound miranda nils lofgren pushing daisies kathy reichs hikaru ga chikyuu ni itakoro ma che bella sorpresa japanese wife anal dvdrip licence'a 0 harry potter och fenixorden grimm ita fu10 night crawling bob dylan altitude guestlist fantasia models autocad