Children.Of.The.Corn.Genesis.2011.DvDRip.XviD.Ac3.Feel-Free

Download Download Torrent
Added September 5 2011
Categorymovies
Seeds / Peers2 / 81 Refresh Leechers
Size933.3 MB
Hash485e89e0a0bff43ee9829a8c555d3a8df4ce75e7
Files
932.77 MB Children.Of.The.Corn.Genesis.2011.DvDRip.XviD.Ac3.Feel-Free.avi
Trackers
http://tracker.thepiratebay.org/announce
udp://tracker.openbittorrent.com:80
udp://tracker.ccc.de:80
udp://tracker.istole.it:80
udp://tracker.publicbt.com:80
http://pow7.com/announce
http://10.rarbg.com/announce
http://tracker.novalayer.org:6969/announce
http://9.rarbg.com:2710/announce
Description
Genre:Horror | Thriller
Language:English

http://www.imdb.com/title/tt1745672/

Source:DVD Thanks!

Format : AVI
Format/Info : Audio Video Interleave
File size : 933 MiB
Duration : 1h 20mn
Overall bit rate : 1 618 Kbps

Video
ID : 0
Format : MPEG-4 Visual
Format profile : Advanced Simple@L5
Format settings, BVOP : Yes
Format settings, QPel : No
Format settings, GMC : No warppoints
Format settings, Matrix : Default (H.263)
Codec ID : XVID
Codec ID/Hint : XviD
Duration : 1h 20mn
Bit rate : 1 161 Kbps
Width : 640 pixels
Height : 272 pixels
Display aspect ratio : 2.35:1
Frame rate : 23.976 fps
Color space : YUV
Chroma subsampling : 4:2:0
Bit depth : 8 bits
Scan type : Progressive
Bits/(Pixel*Frame) : 0.278
Stream size : 669 MiB (72%)
Writing library : XviD 1.2.1 (UTC 2008-12-04)

Audio
ID : 1
Format : AC-3
Format/Info : Audio Coding 3
Mode extension : CM (complete main)
Codec ID : 2000
Duration : 1h 20mn
Bit rate mode : Constant
Bit rate : 448 Kbps
Channel(s) : 6 channels
Channel positions : Front: L C R, Side: L R, LFE
Sampling rate : 48.0 KHz
Bit depth : 16 bits
Stream size : 258 MiB (28%)
Alignment : Aligned on interleaves
Interleave, duration : 42 ms (1.00 video frame)
Interleave, preload duration : 512 ms


Plot:
A young couple tries to free an imprisoned child with catastrophic results

Locations no locations

Related

FILE SIZE SEEDS PEERS ADDED
Garden of Love (2003) 720p BrRip x264 - YIFY - movies Verified 700.5 MB 1 86 3 hours
Le Prochain Film 2013 FRENCH DVDRip x264-DEAL mkv - movies 466.57 MB 19 7 3 hours
Forcefield (USA) - Saga Of The Taming (2015) [mp3@256] [Power/Thrash Metal] - music Verified 81.54 MB 10 12 3 hours
Lionel Richie – Dancing on the Ceiling (Remastered) (2015) 320KBPS - music Verified 111.81 MB 27 11 4 hours
Sterbhaus (Swe) - New Level of Malevolence (2015) [mp3@320] [Thrash/Death Metal] - music Verified 106.16 MB 8 6 4 hours
The Oath (Fra) - Consequences (2015) [mp3@320] [Black/Death/Thrash Metal] - music Verified 109.29 MB 10 9 4 hours
VA - Die Hit Giganten Best Of Italo Hits - (2012)-[FLAC] - [TFM] - music Verified 1.56 GB 2 45 4 hours
The Ultimate Goal Setting Program Achieve your everything - misc 203.32 MB 2 15 4 hours
Chance The Rapper & Social Experiment "SURF" { Beast Coast } - music Verified 72.41 MB 390 67 4 hours
Absolutely 80s Spotlight - Double - Captain of Her Heart - music Verified 4.8 MB 2 1 4 hours
Donnie Trumpet (Chance The Rapper) & The Social Experiment - Surf (2015) l Audio l Album Track l 320Kbps l CBR l Mp3 l sn3h1t87 - music Verified 120.54 MB 94 32 4 hours
The Drum Broker MSXII - The Line Vol. 1-WAV - misc 16.82 MB 2 2 4 hours
Dead.End.Express.S01E04.Grizzly.Goner.HDTV.XviD-AFG - series Verified 354.07 MB 22 14 4 hours
Pawn Stars S12E31 Behind The Wheel HDTV x264-W4F.mp4 - series Verified 135.52 MB 10 4 4 hours
Building.The.Dream.S02E09.REAL.PDTV.x264-Hector.mp4 [imass] - series Verified 247.07 MB 4 2 4 hours
Thundarr the Barbarian episodes- Complete Series ~~R@JU~~ - series Verified 15.64 GB 2 29 4 hours
The Daily Show 2015.05.28 (HDTV-x264-CROOKS)[VTV] - series Verified 141.32 MB 202 28 5 hours
RussianFakeAgent 14 09 17 Another 19 Year Old Student Ready For The Bright Lights And Big City 1080P MP4-GUSH - misc Verified 909.65 MB 0 0 5 hours
Louie S05E08 The Road Part 2 720p HDTV AAC x264-AuP - series 239.29 MB 93 13 5 hours
The Following (2015) S03E14 1080p Web-DL NL Subs SAM TBS - series Verified 1.44 GB 12 22 5 hours
san andreas young and hungry paragon mumford and sons wilder mind picture it 10 pro va-euro-house fossils malayalam mr robot lex's tattooed vixens logic 9 google earth diego florez i am legend arian dominika anna-taylor olivia indian la gloire de mon pere 2002 - bustamante swedish horror mom son