Children.Of.The.Corn.Genesis.2011.DvDRip.XviD.Ac3.Feel-Free

Download Download Torrent
Added September 5 2011
Categorymovies
Seeds / Peers2 / 81 Refresh Leechers
Size933.3 MB
Hash485e89e0a0bff43ee9829a8c555d3a8df4ce75e7
Files
932.77 MB Children.Of.The.Corn.Genesis.2011.DvDRip.XviD.Ac3.Feel-Free.avi
Trackers
http://tracker.thepiratebay.org/announce
udp://tracker.openbittorrent.com:80
udp://tracker.ccc.de:80
udp://tracker.istole.it:80
udp://tracker.publicbt.com:80
http://pow7.com/announce
http://10.rarbg.com/announce
http://tracker.novalayer.org:6969/announce
http://9.rarbg.com:2710/announce
Description
Genre:Horror | Thriller
Language:English

http://www.imdb.com/title/tt1745672/

Source:DVD Thanks!

Format : AVI
Format/Info : Audio Video Interleave
File size : 933 MiB
Duration : 1h 20mn
Overall bit rate : 1 618 Kbps

Video
ID : 0
Format : MPEG-4 Visual
Format profile : Advanced Simple@L5
Format settings, BVOP : Yes
Format settings, QPel : No
Format settings, GMC : No warppoints
Format settings, Matrix : Default (H.263)
Codec ID : XVID
Codec ID/Hint : XviD
Duration : 1h 20mn
Bit rate : 1 161 Kbps
Width : 640 pixels
Height : 272 pixels
Display aspect ratio : 2.35:1
Frame rate : 23.976 fps
Color space : YUV
Chroma subsampling : 4:2:0
Bit depth : 8 bits
Scan type : Progressive
Bits/(Pixel*Frame) : 0.278
Stream size : 669 MiB (72%)
Writing library : XviD 1.2.1 (UTC 2008-12-04)

Audio
ID : 1
Format : AC-3
Format/Info : Audio Coding 3
Mode extension : CM (complete main)
Codec ID : 2000
Duration : 1h 20mn
Bit rate mode : Constant
Bit rate : 448 Kbps
Channel(s) : 6 channels
Channel positions : Front: L C R, Side: L R, LFE
Sampling rate : 48.0 KHz
Bit depth : 16 bits
Stream size : 258 MiB (28%)
Alignment : Aligned on interleaves
Interleave, duration : 42 ms (1.00 video frame)
Interleave, preload duration : 512 ms


Plot:
A young couple tries to free an imprisoned child with catastrophic results

Locations no locations

Related

FILE SIZE SEEDS PEERS ADDED
HC.Sea.Tales.The.Deadly.Arctic.Expedition.XviD.AC3 .avi - series Verified 894.82 MB 59 28 4 hours
The Holy Blood and The Holy Grail - Rocky_45 - misc Verified 1.82 MB 16 4 4 hours
Baigent, Michael - The Jesus Papers - Rocky_45 - misc Verified 3.05 MB 14 14 4 hours
The Tom And Jerry Show 2014 Complete SE1 Burntodisc - series Verified 15.56 GB 3 17 4 hours
Baigent, Michael & Leigh, R.ichard - The Dead Sea Scrolls Deception - Rocky_45 - misc Verified 2.61 MB 24 15 4 hours
The Digital Photography Book vol 5 - misc 18.48 MB 0 0 4 hours
Backstrom S01E11 HDTV XviD-FUM[ettv] - series Verified 349.07 MB 123 99 4 hours
Susan Blackmore - The Meme Machine - Rocky_45 - misc Verified 1.36 MB 14 2 4 hours
J S Scott - [The Billionaire's Obsession 6.5 - Simon and Kara] - Mine for Christmas - Rocky_45 - misc Verified 1.21 MB 14 11 4 hours
The Graham Norton Show S17E02 720p HDTV x264-SNEAkY - series Verified 900.5 MB 64 15 4 hours
The Graham Norton Show S17E02 HDTV x264-SNEAkY - series Verified 306.5 MB 10 8 4 hours
The Graham Norton Show S17E02 HDTV x264-FTP[ettv] - series Verified 264.07 MB 214 92 4 hours
D. J. Molles - The Remaining series (1-5) [6 books] - Rocky_45 - misc Verified 2.6 MB 16 13 5 hours
Game of Thrones. Seizoen 5 Afl 04. WEB -DL (XviD) NL Subs DMT - series Verified 430.57 MB 33 14 5 hours
The theory of time travel.pdf - misc 83.2 KB 29 3 5 hours
Genesis through Revelation (Thru the Bible 5 Volume Set) mobi - misc 23.01 MB 0 0 5 hours
Scorpion - Temporada 1 [HDTV 720p][Cap.106][AC3 5.1 EspaƱol Spanish] - series Verified 1.54 GB 0 1 5 hours
300 Rise Of An Empire (2014) 1080p x265 ENG-ITA MultiSub BluRay - L'alba Di Un Impero - movies Verified 6.24 GB 5 173 5 hours
Murray and Nadels Textbook of Respiratory Medicine - 2-Volume Set [Sixth Edition] [2016][UnitedVRG][PDF] - misc Verified 111.39 MB 15 14 5 hours
A Guide to Publishing for Academics - Inside the Publish or Perish Phenomenon (2015).pdf Gooner - misc Verified 6.33 MB 7 6 5 hours
eben pagan hairy eben pagan get altitude jscape jscape cracked taken 3 secure inet factory pantyhosed4u xxx solo teen sapien powershell aerofly rc 7 thejoyoffeet xxx video essentials whole tomato visual assist blacks on blondes spanish black mirror fast furious 7 patrick swayze 2000