Children.Of.The.Corn.Genesis.2011.DvDRip.XviD.Ac3.Feel-Free

Download Download Torrent
Added September 5 2011
Categorymovies
Seeds / Peers2 / 81 Refresh Leechers
Size933.3 MB
Hash485e89e0a0bff43ee9829a8c555d3a8df4ce75e7
Files
932.77 MB Children.Of.The.Corn.Genesis.2011.DvDRip.XviD.Ac3.Feel-Free.avi
Trackers
http://tracker.thepiratebay.org/announce
udp://tracker.openbittorrent.com:80
udp://tracker.ccc.de:80
udp://tracker.istole.it:80
udp://tracker.publicbt.com:80
http://pow7.com/announce
http://10.rarbg.com/announce
http://tracker.novalayer.org:6969/announce
http://9.rarbg.com:2710/announce
Description
Genre:Horror | Thriller
Language:English

http://www.imdb.com/title/tt1745672/

Source:DVD Thanks!

Format : AVI
Format/Info : Audio Video Interleave
File size : 933 MiB
Duration : 1h 20mn
Overall bit rate : 1 618 Kbps

Video
ID : 0
Format : MPEG-4 Visual
Format profile : Advanced Simple@L5
Format settings, BVOP : Yes
Format settings, QPel : No
Format settings, GMC : No warppoints
Format settings, Matrix : Default (H.263)
Codec ID : XVID
Codec ID/Hint : XviD
Duration : 1h 20mn
Bit rate : 1 161 Kbps
Width : 640 pixels
Height : 272 pixels
Display aspect ratio : 2.35:1
Frame rate : 23.976 fps
Color space : YUV
Chroma subsampling : 4:2:0
Bit depth : 8 bits
Scan type : Progressive
Bits/(Pixel*Frame) : 0.278
Stream size : 669 MiB (72%)
Writing library : XviD 1.2.1 (UTC 2008-12-04)

Audio
ID : 1
Format : AC-3
Format/Info : Audio Coding 3
Mode extension : CM (complete main)
Codec ID : 2000
Duration : 1h 20mn
Bit rate mode : Constant
Bit rate : 448 Kbps
Channel(s) : 6 channels
Channel positions : Front: L C R, Side: L R, LFE
Sampling rate : 48.0 KHz
Bit depth : 16 bits
Stream size : 258 MiB (28%)
Alignment : Aligned on interleaves
Interleave, duration : 42 ms (1.00 video frame)
Interleave, preload duration : 512 ms


Plot:
A young couple tries to free an imprisoned child with catastrophic results

Locations no locations

Related

FILE SIZE SEEDS PEERS ADDED
The Walking Dead: 400 Days (GOG) - games Verified 726.15 MB 2 15 2 hours
Game of Thrones Episode 3-FLT By GaMeFaNteZi - games 5.32 GB 1 0 2 hours
The Walking Dead: Season 2 (GOG) - games Verified 3.79 GB 0 18 2 hours
[Tushy] Karla Kush (Bosses Wife gets Anal from the Office Assistant - 06.07.15) rq.mp4 - misc Verified 311.15 MB 146 113 2 hours
Legends of Eisenwald [RUS | ENG | MULTi] RePack by xatab - games Verified 677.3 MB 54 9 2 hours
[FantasyHD] Ariana Marie (Afternoon By The Pool XXX) [x264] - misc Verified 189.57 MB 21 9 2 hours
My Evil Stepmom Fucked My Ass 2 XXX DVDRiP x264-PORNOLATiON - misc Verified 1.27 GB 1 31 2 hours
My Black Boss XXX DVDRiP x264-DivXfacTory - misc Verified 1.04 GB 1 23 2 hours
Paranormal Pursuit The Gifted One v1.1 Android - games Verified 852.3 MB 0 0 2 hours
- The *REALLY* Complete Edition (True MULTI10, All DLCs inc. Knightfall) [FitGirl Repack, Selective Download, 9.7 GB] - games Verified 50.4 KB 1 0 2 hours
Dead Rising 2: Complete Pack (Original + Off the Record + All DLCs, MULTI7) [FitGirl Repack, Selective Download 5.3/5.8 GB] - games Verified 18.4 KB 0 0 3 hours
Emulador de Mega Drive Genesis Para Psp Picodrive Emulator Genesis-Psp - games 18.52 MB 0 0 3 hours
TeenCurves Kelsi Monroe 4th of July Booty mp4s - misc Verified 300.32 MB 2 2 3 hours
Temple Of The Dog (1991 UK Vinyl) [24-96 FLAC] - music Verified 1.16 GB 3 12 3 hours
EvilAngel Sharon Pink The Tit Hunter mp4 - misc Verified 331.57 MB 2 2 3 hours
EvilAngel Angel Wicky The Tit Hunter mp4 - misc Verified 353.07 MB 4 3 3 hours
The Michael Savage Radio Show JULY-03-2015 FRI - music 58.33 MB 0 0 3 hours
The Rush Limbaugh Show Podcast JULY-06-2015 MON - music 42.64 MB 0 0 3 hours
Graham, Heather-The Silenced(Krewe of Hunters #15) - epub - zeke23 - misc Verified 371.2 KB 21 5 3 hours
The Rolling Stones - December's Children (And Everybody's) (1966) [EAC-FLAC] - music 164.82 MB 4 0 3 hours
hindi windows 7 aio sp1 insurgent kekkai sensen reverse gangbang angry birds rio duran duran karmen bella the making of the mob new york vegas homemade doggystyle mizantrop1337 christiana cinn antonia sainz ava sanchez india summer shemale mia khalifa lightroom 5 light room 5